This website uses cookies to ensure you get the best experience on our website. Learn more

Playlist of RYSEUP TECHNO Feats. RYSE

x
  • desc

    RYSEUP TECHNO Feats. RYSE

    25

    Welcome to the first Livestream of my weekly Progressive House, Minimal and Techno Live Sessions.
    April 26th 2019, Starting next week we will start are regular days which is every Wednesday and Satruday nights. This first mix is a 90 min mix i actually recorded last night at one of my shows. Also I would love for you all to hit that subscribe button and also click the bell, that way you will be notified when i am going live and also it will notify you with other thinks i will post.

    I Don't own the rights to any of these tracks on my livestream.
    Tracklist:

    TRACK 01 AUDIO
    TITLE and-ARTBAT-Apollo-11-Original-Mix-Rukus-128k
    PERFORMER Matador
    INDEX 01 00:00:00
    TRACK 02 AUDIO
    TITLE and-Athina-Poseidon-Original-Mix-Heinz-Music-128k
    PERFORMER Danito
    INDEX 01 07:40:00
    TRACK 03 AUDIO
    TITLE Brigado-Crew-and-Crisstiano-Feat-Haptic-Burning-Original-Mix-Lost-on-You-128k
    PERFORMER PREMIERE
    INDEX 01 13:36:00
    TRACK 04 AUDIO
    TITLE Paganini-Komet-128k
    PERFORMER Sam
    INDEX 01 20:05:00
    TRACK 05 AUDIO
    TITLE Lange-Scorched-Earth-Policy-128k
    PERFORMER Matt
    INDEX 01 25:06:00
    TRACK 06 AUDIO
    TITLE Lange-Abrakalimba-128k
    PERFORMER Matt
    INDEX 01 31:59:00
    TRACK 07 AUDIO
    TITLE Lange-Blackest-Balloon-128k
    PERFORMER Matt
    INDEX 01 37:18:00
    TRACK 08 AUDIO
    TITLE Lange-Griffith-Park-Original-Mix-128k
    PERFORMER Matt
    INDEX 01 45:35:00
    TRACK 09 AUDIO
    TITLE D-Nox-and-Beckers-PolyAcid-Navar-Remix-Beat-Boutique-128k
    PERFORMER PREMIERE
    INDEX 01 51:27:00
    TRACK 10 AUDIO
    TITLE Caspi-and-R3cycle-Amphibious-Original-Mix-Outta-Limits-128k
    PERFORMER Matan
    INDEX 01 60:09:00
    TRACK 11 AUDIO
    TITLE Elvadin-Praimfaya-Original-Mix-Monza-Ibiza-Records-128k
    PERFORMER Juan
    INDEX 01 67:27:00
    TRACK 12 AUDIO
    TITLE Mantzur-Tremolo-Man-Original-Mix-Lost-and-Found-128k
    PERFORMER Guy
    INDEX 01 73:52:00
    TRACK 13 AUDIO
    TITLE Hosh Tone Depth Express (ZippyAudio.com)
    PERFORMER

  • desc

    RYSEUP TECHNO Feats. RYSE

    00

    Welcome to the first Livestream of my weekly Progressive House, Minimal and Techno Live Sessions.
    NOVEMBER 17, 2019, Starting next week we will start are regular days which is every Sunday night. This first mix is a 90 min mix tonight, but may go longer depending on you. Also I would love for you all to hit that subscribe button and also click the bell, that way you will be notified when i am going live and also it will notify you with other thinks i will post. I wanna thank all my friends, family and you my fans who is the reason I get to do what I love everyday. So thank you for all your love and support.

  • x
  • desc

    Ryse Up Remix- Dj Reks

    6:23

    REMIX RISE UP.

  • desc

    DJ Ryse - End of Summer Mix 2017

    17:48

    Check out my first Youtube Mix!
    Comment below and let me know what song you want me to play in the next mix.

    Tracklist:
    1. Tiesto & Seveen - Boom
    2. Peking Duk - Fake Magic
    3. Valentino Khan - Pump
    4. Rrotik - In Between
    5. Jax Jones - House Work (SNBRN Remix)
    6. Pablo Nouvelle feat James Gruntz - Hold On (Rrotik Remix)
    7. Dombresky - Utopia (Madeaux Remix)
    8. DJ Zinc & Chris Lorenzo - Gammy Elbow
    9. Noizu - Lasers
    10. Ummet Ozcan feat Ambrush - Bombjack
    11. Skrillex & Habstrakt - Chicken Soup (Juke Ellington Mashup)
    12. Max Styler & Colt Matthews - Heartache (Taiki Nulight Remix)
    13. Skrillex & Poo Bear - Would You Ever

    Social Media:






    **Bad Table Manners**

    Equipment:
    - Pioneer XDJ-RX
    - Pioneer HDJ-2000
    - Marq Rezo Tubes

  • x
  • desc

    Yves Larock & LVNDSCAPE feat. Jaba - Rise Up 2k16

    3:44

    Yves Larock & LVNDSCAPE feat. Jaba - Rise Up 2k16 is OUT NOW! Listen / download at your favorite service:

    Stay up to date on more Spinnin' artists & music here! ►

    The indestructable sounds of Yves LaRock’s hit tune Rise Up taken to new deep house grounds by LVNDSCAPE. In this 2016 version the melody stays just as strong as ever, with the vocals in a lead role, while the groove gets refreshed in a brand new production. It’s a classic dance record reborn!

    Follow Yves Larock:




    Follow LVNDSCAPE:




    ---

    The Spinnin’ Records YouTube channel is the home for all music videos of the world’s leading dance record label!

    We feature the latest music videos by Spinnin’ artists like Oliver Heldens, Sam Feldt, KSHMR, Ummet Ozcan, Blasterjaxx, Merk & Kremont, Timmy Trumpet, Tujamo, Alok, Curbi, Mike Williams, Lucas & Steve and many, many more! Expect daily uploads of official music videos, lyric videos and artwork videos across genres like dance, house, electro house, future house, deep house, big room and trap.

    Make sure to subscribe to Spinnin' Records:
    ..and turn on notifications to stay updated with all new uploads!🔔

    Follow Spinnin’ Records:





  • desc

    Elektro Outwork Remix - Dj Reks

    4:04

  • x
  • desc

    Hall Of Bottles - Dj Reks

    2:36

    Video Dj Set #DjReks
    MPS PRODUCTION
    Regia: Jessie Nero
    MpSquad #Negritudine

  • desc

    Yves Larock - Rise Up

    5:26

    Song: Rise Up (Club Mix)
    Artist: Yves Larock

    ◄------------------------------------------------------------------------------------------►
    ♦Follow Yves Larock:
    Facebook:
    Twitter:
    ◄------------------------------------------------------------------------------------------►
    Subscribe to EDM Realm:

Shares

x

Check Also

Menu